ExtraTorrent.cc - The Largest Bittorent SystemLogin   |   Register
Latest Articles
Most searched
Hot torrents
First Cams
View Torrent Info: Beauty and The Beast 2017 HD-TS x264-CPG
View Torrent Info: Kong.Skull.Island.2017.CAM.XviD-VAiN
View Torrent Info: The Shack 2017 HDCAM x264-iMLEAVING
View Torrent Info: T2.Trainspotting.2017.CAM.XViD-ETRG
Hot torrents
XVID DIVX
View Torrent Info: We.Dont.Belong.Here.2017.DVDRip.XviD.AC3-EVO
View Torrent Info: From.a.House.on.Willow.Street.2016.HDRip.XviD.AC3-EVO
View Torrent Info: The.Space.Between.Us.2017.HC.HDRip.XViD.AC3-ETRG
View Torrent Info: Walk.of.Fame.2017.HDRip.XviD.AC3-EVO
Hot torrents
H264 X264
View Torrent Info: Hidden.Figures.2016.720p.BRRip.x264.AAC-ETRG
View Torrent Info: Split.2016.FULL.NEW.SOURCE.1080p.HC.HDTV.x264.AAC-SHOWSCEN
View Torrent Info: Paterson.2016.720p.BRRip.x264.AAC-ETRG
View Torrent Info: Dont.Kill.It.2016.720p.BRRip.x264.AAC-ETRG
Hot torrents
BluRay, 4k UHD
View Torrent Info: The.Chamber.2016.BluRay.1080p.x264.DTSHD5.1-DDR
View Torrent Info: Gladiator 2000 Paramount Re-Issue Blu-ray 1080p x264 DTSHD 5.1 -DDR
View Torrent Info: Resident Evil The Final Chapter 2016 Multi 1080pBluRay x264 DTSHD 7.1 -DDR
View Torrent Info: Hidden.Figures.2016.1080p.BluRay.x264-GECKOS[EtHD]
Hot torrents
Television
View Torrent Info: The.Originals.S04E02.HDTV.x264-KILLERS[ettv]
View Torrent Info: The.Blacklist.Redemption.S01E05.HDTV.x264-KILLERS[ettv]
View Torrent Info: The.Last.Kingdom.S02E02.HDTV.x264-MTB[ettv]
View Torrent Info: Greys.Anatomy.S13E17.HDTV.x264-LOL[ettv]
View Torrent Info: The Salesman (Forushande) 2016 Multi 1080p Blu-ray x264 DTSHD 5.1 MSubs-DDR
View Torrent Info: GANTZ:0 2016 BluRay 1080p x264 JPN DTSHD 5.1 ESub-DDR
View Torrent Info: Pandora.2016.HDRip.XviD.AC3-EVO
View Torrent Info: Hidden Figures (2016) 720p BRRip Hindi DD 5.1Ch - Eng DD 5.1Ch ~ PyZ
30s
Chat
To add new messages please Login or Register for FREE
Warning! Use a VPN When Downloading Torrents!
Your IP Address is 46.105.122.112.   Location is France
Your Internet Provider and Government can track your torrent activity!  Hide your IP ADDRESS with a VPN!
ExtraTorrent strongly recommends using Trust.Zone VPN to anonymize your torrenting. It's FREE!
Get VPN Now for FREE!

ExtraTorrent.cc > Categories > Movies torrents > Bollywood/Desi torrents


Browse Movies torrents

Wajah.Tum.Ho.2016.720p.WEB-DL.H264.DD5.1.ESub-DDR torrent


Download torrent:Download Wajah.Tum.Ho.2016.720p.WEB-DL.H264.DD5.1.ESub-DDR torrentMagnet linkBookmark Torrent: Wajah.Tum.Ho.2016.720p.WEB-DL.H264.DD5.1.ESub-DDR Wajah.Tum.Ho.2016.720p.WEB-DL.H264.DD5.1.ESub-DDR torrent
Info hash:FF3AC46A6EE8AA07A88A9BD41E06428E9C2206ED
Category:Categories > Movies torrents > Bollywood/Desi torrents
Trackers:
13   View all torrent trackers >
Health:
 seeds: 93, leechers: 120| Update >
Torrent language:Hindi Hindi
Total Size:5.14 GB
Number of files:
12   View torrent files >
Torrent status:Added by trusted uploader Added by trusted uploader Vip MemberTrusted UploaderET junkieET loverSuperman
Uploader:Vip MemberTrusted UploaderET junkieET loverSuperman
Torrent added:2017-01-11 21:50:43
Users rating:5.5 / 10, total 2 votes.  Latest by: ,
Wajah.Tum.Ho.2016.720p.WEB-DL.H264.DD5.1.ESub-DDR


Download Wajah.Tum.Ho.2016.720p.WEB-DL.H264.DD5.1.ESub-DDR torrent




Your IP Address is 46.105.122.112.   Location is France
Your Internet Provider and Government can track your torrent activity!  Hide your IP ADDRESS with a VPN!
ExtraTorrent strongly recommends using Trust.Zone VPN to anonymize your torrenting. It's FREE!

HIDE ME NOW
Torrent Description
DDR-28.png

~ Wajah.Tum.Ho ~

** 720p / WEBHD / H.264 / AC3 5.1 / ESubs **

93b5258e135a1e9931f1a41115d9690f.md.jpg


Code:
General Complete name : Wajah.Tum.Ho.2016.720p.WEB-DL.H264.DD5.1.ESub-DDR.mkv Format : Matroska Format version : Version 4 / Version 2 File size : 5.09 GiB Duration : 2 h 10 min Overall bit rate mode : Variable Overall bit rate : 5 586 kb/s Encoded date : UTC 2017-01-11 21:07:35 Writing application : mkvmerge v9.6.0 ('Slave To Your Mind') 64bit Writing library : libebml v1.3.4 + libmatroska v1.4.5 Video ID : 1 Format : AVC Format/Info : Advanced Video Codec Format profile : [email protected] Format settings, CABAC : Yes Format settings, ReFrames : 8 frames Codec ID : V_MPEG4/ISO/AVC Duration : 2 h 10 min Bit rate mode : Variable Bit rate : 5 200 kb/s Maximum bit rate : 24.0 Mb/s Width : 1 364 pixels Height : 580 pixels Display aspect ratio : 2.35:1 Frame rate mode : Constant Frame rate : 25.000 FPS Color space : YUV Chroma subsampling : 4:2:0 Bit depth : 8 bits Scan type : Progressive Bits/(Pixel*Frame) : 0.263 Stream size : 4.74 GiB (93%) Language : English Default : Yes Forced : No Color range : Limited Color primaries : BT.709 Transfer characteristics : BT.709 Matrix coefficients : BT.709 Audio ID : 2 Format : AC-3 Format/Info : Audio Coding 3 Mode extension : CM (complete main) Format settings, Endianness : Big Codec ID : A_AC3 Duration : 2 h 10 min Bit rate mode : Constant Bit rate : 384 kb/s Channel(s) : 6 channels Channel positions : Front: L C R, Side: L R, LFE Sampling rate : 48.0 kHz Frame rate : 31.250 FPS (1536 spf) Bit depth : 16 bits Compression mode : Lossy Delay relative to video : 20 ms Stream size : 359 MiB (7%) Language : Hindi Default : Yes Forced : No Text ID : 3 Format : UTF-8 Codec ID : S_TEXT/UTF8 Codec ID/Info : UTF-8 Plain Text Duration : 2 h 7 min Bit rate : 49 b/s Count of elements : 1470 Stream size : 46.3 KiB (0%) Language : English Default : Yes Forced : No

ddrss.png


29e3e5aef6304864ba5aef3e181607c0.th.png 6e5c10babdc736091ca96bbd79ed311d.th.png 7974b0cca42d223016f955e5ad4b90da.th.png 78779fcbf63022ef2c1c88975037e873.th.png b345603fff7971baa49562f913b45072.th.png bd978747066bd99081faeaa21ec42ba5.th.png aca660d54af2f7397bf3c31a953ec417.th.png 043631d2fb540c3dc7d734ab3dfeaff8.th.png db2a3305c497e457c4b285fb1b432a17.th.png f13b5f7263ab47638c77fe497ab49abd.th.png



A DDR Exclusive Release...

Download Wajah.Tum.Ho.2016.720p.WEB-DL.H264.DD5.1.ESub-DDR torrent


Related Torrents


Comments (please add your comment)
1
posted by (2017-01-23 21:18:52)
raajveer14 avatarVery nice upload





Home - Browse Torrents - Upload Torrent - Stat - Forum - FAQ - Login
ExtraTorrent.cc is in compliance with copyrights
BitCoin: 12DiyqsWhENahDzdhdYsRrCw8FPQVcCkcm
Can't load ExtraTorrent? Try our official mirrors: etmirror.com - etproxy.com - extratorrentonline.com - extratorrentlive.com
2006-2017 ExtraTorrent.cc3