ExtraTorrent.cc - The Largest Bittorent SystemLogin   |   Register
Latest Articles
Most searched
Hot torrents
First Cams
View Torrent Info: Beauty and The Beast 2017 720p HD-TS x264-CPG
View Torrent Info: Kong.Skull.Island.2017.CAM.XviD-VAiN
View Torrent Info: The Shack 2017 HDCAM x264-iMLEAVING
View Torrent Info: T2.Trainspotting.2017.CAM.XViD-ETRG
Hot torrents
XVID DIVX
View Torrent Info: Kung.Fu.Yoga.2017.HC.HDRip.XviD.AC3-EVO
View Torrent Info: The.Rift.2016.HDRip.XViD-ETRG
View Torrent Info: Warriors.Gate.2016.BDRip.XviD.AC3-EVO
View Torrent Info: The.House.of.the.Devil.2009.BRRip.XviD-ETRG
Hot torrents
H264 X264
View Torrent Info: Vengeance.A.Love.Story.2017.720p.BRRip.x264.AAC-ETRG
View Torrent Info: Moana.2016.BluRay.1080p.DTS.AC3.x264-ETRG
View Torrent Info: Assassins.Creed.2016.BluRay.720p.DTS.AC3.x264-ETRG
View Torrent Info: From.a.House.on.Willow.Street.2016.720p.WEBRip.x264.AAC-ETRG
Hot torrents
BluRay, 4k UHD
View Torrent Info: Dont Kill It 2016 BluRay 1080p x264 DTSHD5.1 -DDR
View Torrent Info: Warriors Gate 2016 1080p Bluray x264 DTSHD 5.1 -DDR
View Torrent Info: Hunt for the WinderPeople 2016 Multi  Bluray 1080p x264 DTSHD 5.1 -DDR
View Torrent Info: Bitter Harvest (Holodomor) - Bluray 1080p x264 DTSHD 5.1 -DDR
Hot torrents
Television
View Torrent Info: The.Walking.Dead.S07E15.WEB-DL.x264-FUM[ettv]
View Torrent Info: Into.the.Badlands.S02E02.WEB-DL.x264-FUM[ettv]
View Torrent Info: Time.After.Time.US.S01E05.HDTV.x264-LOL[ettv]
View Torrent Info: Elementary.S05E18.HDTV.x264-LOL[ettv]
View Torrent Info: Yo-Kai Watch Movie (2014) x264 720p BluRay {Dual Audio} [Hindi ORG DD 2.0   Japanese 5.1] Exclusive By DREDD
View Torrent Info: Dil To Pagal Hai 1997 BluRay 1080P x264 DTSHD 5.1 -DDR
View Torrent Info: Ho Mann Jahaan (2016) TVRIP 1CDRIP x264 AAC [DDR]
View Torrent Info: Trapped (2017) DesiPDVD 1CDRIP x264 AAC [DDR]
30s
Chat
To add new messages please Login or Register for FREE
Warning! Protect Yourself from Lawsuits and Fines!
Your IP Address is 46.105.122.112.   Location is France
Your IP Address is visible to EVERYONE. Hide your IP ADDRESS with a VPN while torrenting!
ExtraTorrent strongly recommends using Trust.Zone VPN to anonymize your torrenting. It's FREE!
Hide my IP address!

ExtraTorrent.cc > Categories > Movies torrents > Comedy torrents


Browse Movies torrents

MASTERMINDS (2016) 1080p Blu-Ray x264 DTSHD 5.1 -DDR torrent


Download torrent:Download MASTERMINDS (2016) 1080p Blu-Ray x264 DTSHD 5.1 -DDR torrentMagnet linkBookmark Torrent: MASTERMINDS (2016) 1080p Blu-Ray x264 DTSHD 5.1 -DDR MASTERMINDS (2016) 1080p Blu-Ray x264 DTSHD 5.1 -DDR torrent
Info hash:7CF2F4BF5A47954D24015E936858CE3470AF5907
Category:Categories > Movies torrents > Comedy torrents
Trackers:
13   View all torrent trackers >
Health:
 seeds: 270, leechers: 176| Update >
Torrent language:English English
Total Size:9.64 GB
Number of files:
4   View torrent files >
Torrent status:Added by trusted uploader Added by trusted uploader Vip MemberTrusted UploaderET junkieET loverSuperman
Uploader:Vip MemberTrusted UploaderET junkieET loverSuperman
Torrent added:2017-01-11 22:15:45   |   Last edit: 2017-01-14 15:07:11 by
SaM
Users rating:10.0 / 10, total 1 votes.  Latest by: ET baby
MASTERMINDS (2016) 1080p Blu-Ray x264 DTSHD 5.1 -DDR


Download MASTERMINDS (2016) 1080p Blu-Ray x264 DTSHD 5.1 -DDR torrent




Your IP Address is 46.105.122.112.   Location is France
Your Internet Provider and Government can track your torrent activity!  Hide your IP ADDRESS with a VPN!
ExtraTorrent strongly recommends using Trust.Zone VPN to anonymize your torrenting. It's FREE!

HIDE ME NOW
Torrent Description
ddr_logo.png
9f9b12693595f6f6715ab8daaa230ab3.md.jpg

HQ 1080p Blu-Ray Rip x264

English DTSHD-MA 5.1 Audio

English Sub

SCREENSHOTS
8337881fe203a0a1238c8da3dcbd9c0e.th.png 1e46436e0625a5a3eb52cc54d56a795c.th.png a819311e696951ef244dceab738a21e3.th.png a9a474dc4abeff7a0db1d78920215132.th.png e68b91a91579be5b24db6c96e14d6d68.th.png 8fea0f03c165ef14b6d452db5b6a875d.th.png

SPECS


Source: Blu-ray

Format : Matroska
File size : 9.60 GiB
Duration : 1 h 34 min
Overall bit rate : 14.5 Mb/s

Video
Format : AVC
Format/Info : Advanced Video Codec
Format profile : [email protected]
Format settings, CABAC : Yes
Format settings, ReFrames : 5 frames
Codec ID : V_MPEG4/ISO/AVC
Duration : 1 h 34 min
Bit rate : 10.0 Mb/s
Width : 1 920 pixels
Height : 1 080 pixels
Display aspect ratio : 16:9
Frame rate mode : Constant
Frame rate : 23.976 (24000/1001) FPS
Color space : YUV
Chroma subsampling : 4:2:0
Bit depth : 8 bits
Scan type : Progressive
Bits/(Pixel*Frame) : 0.201
Stream size : 6.60 GiB (69%)
Default : Yes
Forced : No
Color range : Limited
Color primaries : BT.709
Transfer characteristics : BT.709
Matrix coefficients : BT.709

Audio #1
Format : DTS
Format/Info : Digital Theater Systems
Format profile : MA / Core
Mode : 16
Format settings, Endianness : Big
Codec ID : A_DTS
Duration : 1 h 34 min
Bit rate mode : Variable / Constant
Bit rate : 4 504 kb/s / 1 509 kb/s
Channel(s) : 6 channels
Channel positions : Front: L C R, Side: L R, LFE
Sampling rate : 48.0 kHz
Frame rate : 93.750 FPS (512 spf)
Bit depth : 24 bits
Compression mode : Lossless / Lossy
Stream size : 2.98 GiB (31%)
Language : English
Default : Yes
Forced : No
Chapters : YES

SAMPLE Included

A DDR Exclusive Encode

Download MASTERMINDS (2016) 1080p Blu-Ray x264 DTSHD 5.1 -DDR torrent


Related Torrents


Comments (please add your comment)
1
posted by Site FriendET junkieET loverSuperman (2017-01-12 14:31:18)
Funky_Axl avatarthanx!





Home - Browse Torrents - Upload Torrent - Stat - Forum - FAQ - Login
ExtraTorrent.cc is in compliance with copyrights
BitCoin: 12DiyqsWhENahDzdhdYsRrCw8FPQVcCkcm
Can't load ExtraTorrent? Try our official mirrors: etmirror.com - etproxy.com - extratorrentonline.com - extratorrentlive.com
2006-2017 ExtraTorrent.cc1