ExtraTorrent.cc - The Largest Bittorent SystemLogin   |   Register
Latest Articles
Most searched
Hot torrents
First Cams
View Torrent Info: Beauty and The Beast 2017 720p HD-TS x264-CPG
View Torrent Info: Kong.Skull.Island.2017.CAM.XviD-VAiN
View Torrent Info: The Shack 2017 HDCAM x264-iMLEAVING
View Torrent Info: T2.Trainspotting.2017.CAM.XViD-ETRG
Hot torrents
XVID DIVX
View Torrent Info: Kung.Fu.Yoga.2017.HC.HDRip.XviD.AC3-EVO
View Torrent Info: The.Rift.2016.HDRip.XViD-ETRG
View Torrent Info: Warriors.Gate.2016.BDRip.XviD.AC3-EVO
View Torrent Info: The.House.of.the.Devil.2009.BRRip.XviD-ETRG
Hot torrents
H264 X264
View Torrent Info: Vengeance.A.Love.Story.2017.720p.BRRip.x264.AAC-ETRG
View Torrent Info: Moana.2016.BluRay.1080p.DTS.AC3.x264-ETRG
View Torrent Info: Assassins.Creed.2016.BluRay.720p.DTS.AC3.x264-ETRG
View Torrent Info: From.a.House.on.Willow.Street.2016.720p.WEBRip.x264.AAC-ETRG
Hot torrents
BluRay, 4k UHD
View Torrent Info: Kabhi Khushi Kabhie Gham 2001 Bluray 1080p x264 DTSHD 5.1 -DDR
View Torrent Info: Passengers 2016 Multi UHD BluRay 2160p HEVC HDR10 DTSHD 5.1 -DDR
View Torrent Info: Dont Kill It 2016 BluRay 1080p x264 DTSHD5.1 -DDR
View Torrent Info: Warriors Gate 2016 1080p Bluray x264 DTSHD 5.1 -DDR
Hot torrents
Television
View Torrent Info: Supergirl.S02E17.HDTV.x264-LOL[ettv]
View Torrent Info: Taken.2017.S01E05.HDTV.x264-KILLERS[ettv]
View Torrent Info: Quantico.S02E15.HDTV.x264-KILLERS[ettv]
View Torrent Info: The.Walking.Dead.S07E15.WEB-DL.x264-FUM[ettv]
View Torrent Info: Kabhi Alvida Naa Kehna 2006 1080p Bluray x264 DTSHD 5.1 -DDR
View Torrent Info: Yo-Kai Watch Movie (2014) x264 720p BluRay {Dual Audio} [Hindi ORG DD 2.0   Japanese 5.1] Exclusive By DREDD
View Torrent Info: Dil To Pagal Hai 1997 BluRay 1080P x264 DTSHD 5.1 -DDR
View Torrent Info: Ho Mann Jahaan (2016) TVRIP 1CDRIP x264 AAC [DDR]
30s
Chat
To add new messages please Login or Register for FREE
Warning! Protect Yourself from Lawsuits and Fines!
Your IP Address is 46.105.122.112.   Location is France
Your IP Address is visible to EVERYONE. Hide your IP ADDRESS with a VPN while torrenting!
ExtraTorrent strongly recommends using Trust.Zone VPN to anonymize your torrenting. It's FREE!
Hide my IP address!

ExtraTorrent.cc > Categories > Movies torrents > Bollywood/Desi torrents


Browse Movies torrents

Naam Hai Akira (2016) HQ1080p Blu-Ray x264 DTSHD 5.1 ESub -DDR torrent


Download torrent:Download Naam Hai Akira (2016) HQ1080p Blu-Ray x264 DTSHD 5.1 ESub -DDR torrentMagnet linkBookmark Torrent: Naam Hai Akira (2016) HQ1080p Blu-Ray x264 DTSHD 5.1 ESub -DDR Naam Hai Akira (2016) HQ1080p Blu-Ray x264 DTSHD 5.1 ESub -DDR torrent
Info hash:98CE859CA8677DFA55BC3A07CF2F3038B81E8FB8
Category:Categories > Movies torrents > Bollywood/Desi torrents
Trackers:
13   View all torrent trackers >
Health:
 seeds: 18, leechers: 9| Update >
Torrent language:Hindi Hindi
Total Size:13.80 GB
Number of files:
3   View torrent files >
Torrent status:Added by trusted uploader Added by trusted uploader Vip MemberTrusted UploaderET junkieET loverSuperman
Uploader:Vip MemberTrusted UploaderET junkieET loverSuperman
Torrent added:2017-01-11 21:54:20   |   Last edit: 2017-01-14 15:04:11 by
SaM
Users rating:10.0 / 10, total 1 votes.  Latest by: 
Naam Hai Akira (2016) HQ1080p Blu-Ray x264 DTSHD 5.1 ESub -DDR


Download Naam Hai Akira (2016) HQ1080p Blu-Ray x264 DTSHD 5.1 ESub -DDR torrent




Your IP Address is 46.105.122.112.   Location is France
Your Internet Provider and Government can track your torrent activity!  Hide your IP ADDRESS with a VPN!
ExtraTorrent strongly recommends using Trust.Zone VPN to anonymize your torrenting. It's FREE!

HIDE ME NOW
Torrent Description
ddr_logo.png
cca88e945df61bbab2d9efc8fe81a6ec.md.jpg


HQ 1080p Blu-Ray Rip x264

Hindi DTSHD-MA 5.1 Audio

English Subs

SCREENSHOTS
19be4c9d650e0d350cb379372b1b9f30.th.png b72d0b0611a23dc839649ecb82352bfa.th.png fad6fd44209ad749c78611f9a039f8c9.th.png 61b98ebb17bf55f67608c7374ccf3cf3.th.png 13b7b33fc6ee47be70141d33e83d8d5e.th.png 2c5a286b3ddc60e538f9c626bb6ff333.th.png d01a21a567b0fd3c1c3d47dcf31c76c5.th.png 8fd944bbb6e3e0705fdcbcb8dff75fa7.th.png 09d32df7c2201bb1dc1196b145032ed9.th.png 7120a04a8c2c38b6d8ab26feb2c5d5b3.th.png 879e27e852bdecd7312cb21e4b8e732f.th.png 90293e347b3360c1df7fd4ea56d76797.th.png

SPECS


Source: Blu-ray BD50 @ HDT

Format : Matroska
File size : 13.8 GiB
Duration : 2 h 16 min
Overall bit rate : 14.4 Mb/s

Video
Format : AVC
Format/Info : Advanced Video Codec
Format profile : [email protected]
Format settings, CABAC : Yes
Format settings, ReFrames : 5 frames
Codec ID : V_MPEG4/ISO/AVC
Bit rate : 10.0 Mb/s
Width : 1 920 pixels
Height : 800 pixels
Display aspect ratio : 2.40:1
Frame rate mode : Constant
Frame rate : 24.000 FPS
Color space : YUV
Chroma subsampling : 4:2:0
Bit depth : 8 bits
Scan type : Progressive
Bits/(Pixel*Frame) : 0.271
Stream size : 9.56 GiB (70%)
Default : Yes
Forced : No
Color range : Limited
Color primaries : BT.709
Transfer characteristics : BT.709
Matrix coefficients : BT.709

Audio #1
Format : DTS
Format/Info : Digital Theater Systems
Format profile : MA / Core
Mode : 16
Format settings, Endianness : Big
Codec ID : A_DTS
Duration : 2 h 16 min
Bit rate mode : Variable / Constant
Bit rate : 4 382 kb/s / 1 509 kb/s
Channel(s) : 6 channels
Channel positions : Front: L C R, Side: L R, LFE
Sampling rate : 48.0 kHz
Frame rate : 93.750 FPS (512 spf)
Bit depth : 24 bits
Compression mode : Lossless / Lossy
Stream size : 4.19 GiB (30%)
Language : Hindi
Default : Yes
Forced : No


SAMPLE Included

A DDR Exclusive Encode

Download Naam Hai Akira (2016) HQ1080p Blu-Ray x264 DTSHD 5.1 ESub -DDR torrent


Related Torrents


Comments (please add your comment)
1
posted by ET junkieSuperman (2017-01-12 02:56:15)
boxopus avatarthnx TeamDDR





Home - Browse Torrents - Upload Torrent - Stat - Forum - FAQ - Login
ExtraTorrent.cc is in compliance with copyrights
BitCoin: 12DiyqsWhENahDzdhdYsRrCw8FPQVcCkcm
Can't load ExtraTorrent? Try our official mirrors: etmirror.com - etproxy.com - extratorrentonline.com - extratorrentlive.com
2006-2017 ExtraTorrent.cc2