Better.Off.Single.2016.DVDRip.x264-BiPOLAR[PRiME]

  • Category Movies
  • Type Divx/Xvid
  • Language English
  • Total size 398.5 MB
  • Uploaded By showstopper
  • Downloads 749
  • Last checked 1 month ago
  • Date uploaded 1 month ago
  • Seeders 27
  • Leechers 12

Better Off Single

Comedy

A comedy that follows a man on a mission of self-discovery that results in hallucinations, flashbacks and fantasies in his quest to find new love and himself.

Infohash : B90065883866BEA03D6D6CF232A783C99F9DE7D0


Better.Off.Single.2016.DVDRip.x264-BiPOLAR[PRiME]

ImDb: http://www.imdb.com/title/tt2081374



Complete name : better.off.single.2016.dvdrip.x264-bipolar[PRiME].mkv
Format : Matroska
Format version : Version 4 / Version 2
File size : 398 MiB
Duration : 1 h 20 min
Overall bit rate : 688 kb/s
Encoded date : UTC 2017-01-09 20:32:49
Writing application : mkvmerge v8.5.1 ('Where you lead I will follow') 64bit
Writing library : libebml v1.3.3 + libmatroska v1.4.4

Video
ID : 1
Format : AVC
Format/Info : Advanced Video Codec
Format profile : [email protected]
Format settings, CABAC : Yes
Format settings, ReFrames : 5 frames
Codec ID : V_MPEG4/ISO/AVC
Duration : 1 h 20 min
Bit rate : 555 kb/s
Width : 720 pixels
Height : 298 pixels
Display aspect ratio : 2.40:1
Frame rate mode : Constant
Frame rate : 23.976 (24000/1001) FPS
Color space : YUV
Chroma subsampling : 4:2:0
Bit depth : 8 bits
Scan type : Progressive
Bits/(Pixel*Frame) : 0.108
Stream size : 321 MiB (81%)
Writing library : x264 core 148 r2744 b97ae06
Encoding settings : cabac=1 / ref=5 / deblock=1:-2:-2 / analyse=0x3:0x113 / me=umh / subme=8 / psy=1 / psy_rd=0.80:0.00 / mixed_ref=1 / me_range=16 / chroma_me=1 / trellis=2 / 8x8dct=1 / cqm=0 / deadzone=21,11 / fast_pskip=1 / chroma_qp_offset=-2 / threads=9 / lookahead_threads=1 / sliced_threads=0 / nr=0 / decimate=1 / interlaced=0 / bluray_compat=0 / constrained_intra=0 / bframes=3 / b_pyramid=2 / b_adapt=1 / b_bias=0 / direct=3 / weightb=1 / open_gop=0 / weightp=2 / keyint=240 / keyint_min=23 / scenecut=40 / intra_refresh=0 / rc_lookahead=50 / rc=crf / mbtree=1 / crf=19.0 / qcomp=0.60 / qpmin=0 / qpmax=69 / qpstep=4 / ip_ratio=1.40 / aq=1:1.00
Language : English
Default : Yes
Forced : No

Audio
ID : 2
Format : AAC
Format/Info : Advanced Audio Codec
Format profile : LC
Codec ID : A_AAC
Duration : 1 h 20 min
Bit rate : 132 kb/s
Channel(s) : 2 channels
Channel positions : Front: L R
Sampling rate : 48.0 kHz
Frame rate : 46.875 FPS (1024 spf)
Compression mode : Lossy
Delay relative to video : 9 ms
Stream size : 76.1 MiB (19%)
Language : English
Default : Yes
Forced : No

Menu
00:00:00.000 : en:Chapter 01
00:06:08.200 : en:Chapter 02
00:14:48.767 : en:Chapter 03
00:21:50.735 : en:Chapter 04
00:30:10.603 : en:Chapter 05
00:41:04.437 : en:Chapter 06
00:49:08.104 : en:Chapter 07
00:54:59.805 : en:Chapter 08
01:00:38.139 : en:Chapter 09
01:07:51.406 : en:Chapter 10
01:20:50.274 : en:Chapter 11




Click Image To View Full Size


Click To View Screenshot
Click To View Screenshot
Click To View Screenshot

Files:

Better.Off.Single.2016.DVDRip.x264-BiPOLAR[PRiME]
  • Please Support!! Read More!!!.txt (0.2 KB)
  • Torrent Downloaded From 1337x.to.txt (0.1 KB)
  • Torrent Downloaded From ExtraTorrent.cc.txt (0.4 KB)
  • Torrent downloaded from AhaShare.com.txt (0.1 KB)
  • better.off.single.2016.dvdrip.x264-bipolar[PRiME].mkv (398.5 MB)

There are currently no comments. Feel free to leave one :)

Code:

  • udp://tracker.ilibr.org:6969/announce
  • udp://tracker.coppersurfer.tk:6969
  • udp://tracker.ilibr.org:80/announce
  • udp://tracker.coppersurfer.tk:6969/announce
  • udp://tracker.leechers-paradise.org:6969/announce
  • udp://tracker.opentrackr.org:1337/announce
  • udp://tracker.zer0day.to:1337/announce
  • udp://ipv4.tracker.harry.lu:80/announce
  • udp://p4p.arenabg.ch:1337/announce
  • udp://p4p.arenabg.com:1337/announce
  • udp://9.rarbg.com:2710/announce
  • udp://9.rarbg.to:2710/announce
  • udp://9.rarbg.me:2710/announce
  • udp://explodie.org:6969/announce
  • udp://eddie4.nl:6969/announce