Dangal (2016) 1CD Desi PDvD x264 (Deflickered) -DDR-Exclusive

  • Category Movies
  • Type h.264/x264
  • Language Hindi
  • Total size 701.5 MB
  • Uploaded By SaM
  • Downloads 26111
  • Last checked 17 hours ago
  • Date uploaded 1 month ago
  • Seeders 558
  • Leechers 115

Infohash : C222EBD249B7A983337C1B29D0AD058FFC253D75




1 CD DesiPDVD Rip x264

AAC Stereo Audio

Video Flickering 100 % removed - A DDR Exclusivity

SCREENSHOTS


SPECS

Source: MPEG DUMP @ Lotty Ka Ware house (The P2P King of Pre)

Format : Matroska
Format : AVC
Format/Info : Advanced Video Codec
Format profile : [email protected]
Format settings, CABAC : Yes
Format settings, ReFrames : 16 frames
Codec ID : V_MPEG4/ISO/AVC
Duration : 2 h 32 min
Bit rate mode : Variable
Bit rate : 573 kb/s
Maximum bit rate : 62.5 Mb/s
Width : 640 pixels
Height : 240 pixels
Display aspect ratio : 2.667
Frame rate mode : Constant
Frame rate : 25.000 FPS
Color space : YUV
Chroma subsampling : 4:2:0
Bit depth : 8 bits
Scan type : Progressive
Bits/(Pixel*Frame) : 0.149
Stream size : 625 MiB (90%)
Writing library : x264 core 148 r2744 b97ae06
Default : Yes
Forced : No
Color range : Limited
Color primaries : BT.601 NTSC
Transfer characteristics : BT.601
Matrix coefficients : BT.601

Audio #1
Format : AAC
Format/Info : Advanced Audio Codec
Format profile : LC
Codec ID : A_AAC
Duration : 2 h 32 min
Bit rate : 64.0 kb/s
Channel(s) : 2 channels
Channel positions : Front: L R
Sampling rate : 48.0 kHz
Frame rate : 46.875 FPS (1024 spf)
Compression mode : Lossy
Delay relative to video : 9 ms
Stream size : 69.8 MiB (10%)
Language : Hindi
Default : Yes
Forced : No

Chapters : None

SAMPLE Included



A DDR Exclusive Encode



Files:

Dangal (2016) 1CD Desi pDVD x264 -DDR
  • Dangal (2016) 1CD Desi pDVD x264 -DDR.mkv (697.4 MB)
  • sample-Dangal (2016) 1CD Desi pDVD x264 -DDR.mkv (4.1 MB)
  • A DDR Release !!.txt (0.3 KB)

There are currently no comments. Feel free to leave one :)

Code:

  • udp://tracker.coppersurfer.tk:6969/announce
  • udp://tracker.zer0day.to:1337/announce
  • udp://tracker.ilibr.org:6969/announce
  • udp://tracker.leechers-paradise.org:6969/announce
  • udp://torrent.gresille.org:80/announce
  • udp://tracker.ilibr.org:80/announce
  • udp://p4p.arenabg.com:1337/announce
  • udp://p4p.arenabg.ch:1337/announce
  • udp://tracker.leechers-paradise.org:6969/announce
  • udp://tracker.coppersurfer.tk:6969/announce
  • udp://9.rarbg.me:2710/announce
  • udp://tracker.internetwarriors.net:1337/announce
  • udp://tracker.opentrackr.org:1337/announce
  • udp://eddie4.nl:6969/announce
  • udp://9.rarbg.to:2710/announce